armin van buuren masterclass torrent

Posted by : MasterClass.com
Country : United States
Topic : music learning
Type of handing out material : Video Tutorial
Duration : 06:50:53
Year of release : 2017
Language : English
Translation : None

Description:

armin van buuren masterclass five-time platinum producer recognized by DJ Magazine UK magazine as DJ No. in the world.
Armin van Buren puts 43million listeners on his radio show each week in the state ofTrans. Platinum DJ shares its classics at the world’s first online masterclass and is creating whole new album to show you how it works, performs and promotes dance music.
You’ll learn how to use samples and add-ons, mix, record vocals and build the DJ set.
The public awaits you. The course is composed of over 20 classes. Workbook for the lesson The course is followed by workbook which can be downloaded including the key courses. The course armin van buuren masterclass torrent is accompanied by a downloadable workbook, which contains the key courses as well  as supplementary content.

Quality : HDRip
Format : MP4
Video codec : H.264
Audio Codec : AAC
Video : AVC, 1920×1080, 16: 9, 5,007 kb / s, 30,000 FPS
Audio : AAC, 418 kbps, 48.0 kHz, 2 channels

MediaInfo
Complete name: MasterClass – Armin Van Buuren Teaches Dance Music \ Armin van Buuren Masterclass – 14 – Mixing and Mastering, Part 2.mp4
Format: MPEG-4
Format profile: Base Media / Version 2
Codec ID: mp42 (mp42 / mp41)
File size: 592 MiB
Duration: 15 min 31 s
Overall bit rate mode: Variable
Overall bit rate: 5 328 kb / s
Encoded date: UTC 2018-03-02 16:31:37
Tagged date: UTC 2018-03-02 16:31:43
© TIM: 02: 42: 24: 11
© TSC: 30
© TSZ: 1
Video
ID: 1
Format: AVC
Format / Info: Advanced Video Codec
Format profile: [email protected]
Format settings, CABAC: Yes
Format settings, ReFrames: 4 frames
Codec ID: avc1
Codec ID / Info: Advanced Video Coding
Duration: 15 min 31 s
Bit rate: 5,007 kb / s
Width: 1 920 pixels
Height: 1,080 pixels
Display aspect ratio: 16: 9
Frame rate mode: Constant
Frame rate: 30,000 FPS
Standard: NTSC
Color space: YUV
Chroma subsampling: 4: 2: 0
Bit depth: 8 bits
Scan type: Progressive
Bits / (Pixel * Frame): 0.080
Stream size: 556 MiB (94%)
Language: English
Encoded date: UTC 2018-03-02 16:31:37
Tagged date: UTC 2018-03-02 16:31:37
Color range: Limited
Color primaries: BT.709
Transfer characteristics: BT.709
Matrix coefficients: BT.709
Audio
ID: 2
Format: AAC
Format / Info: Advanced Audio Codec
Format profile: LC
Codec ID: 40
Duration: 15 min 31 s
Source duration: 15 min 31 s
Bit rate mode: Variable
Bit rate: 317 kb / s
Maximum bit rate: 418 kb / s
Channel (s): 2 channels
Channel positions: Front: LR
Sampling rate: 48.0 kHz
Frame rate: 46.875 FPS (1024 spf)
Compression mode: Lossy
Stream size: 35.2 MiB (6%)
Source stream size: 35.2 MiB (6%)
Language: English
Encoded date: UTC 2018-03-02 16:31:37
Tagged date: UTC 2018-03-02 16:31:37

Download Link  ||  Mirror

Leave a Reply

Your email address will not be published. Required fields are marked *